» » Justin Atlan, Adam Horwitz - Clickbank University 2.0

Justin Atlan, Adam Horwitz - Clickbank University 2.0

Justin Atlan, Adam Horwitz - Clickbank University 2.0

Justin Atlan, Adam Horwitz - Clickbank University 2.0
WEBRip | English | MP4 | 960 x 540 | AVC ~1219 Kbps | 23.976 fps
AAC | 128 Kbps | 44.1 KHz | 2 channels | ~23 hours | 11.44 GB
Genre: eLearning Video / Business, Sales, Marketing
Join the BRAND NEW Fully Upgraded ClickBank University 2.0; 8-Week Affiliate + 12-Week Vendor Class; Bi-Weekly Expert Classes; Specially Curated Add-on Trainings; CBU Toolkit and Traffic Center; Massive Discounts on our Favorite Tools; Live Events for a Fraction of the Price; AND The Exclusive ClickBank University Community; And Surprise bonuses; Follow in the Exact Footsteps of PROVEN; 7 and 8-Figure ClickBank Winners


When it comes to helping you build your online business, whom do you trust?

This is not a trick question.

Because until ClickBank University, despite the seemingly endless procession of gurus out there, there was no single reputable source for the latest in how to launch a ClickBank-based business.

That's why we decided to create our own. So you'd have the very best information. Information that's dependable, reliable and trustworthy.

What's Working Now
The second most important reason we created ClickBank University
is because the Internet is constantly changing. It's evolving.
It's critical to your online success you're shown specifically what's working now - from people in the trenches, doing it every day.

That way, you avoid a huge amount of trial and error. You eliminate the frustration of things not working as expected and you make a huge shortcut to the learning curve.

Now, with the launch ClickBank University 2.0, we've performed a major upgrade. We've 'levelled up'.

So many things have changed. That's why we're constantly improving what's already working and making it 10X better.

ClickBank University 2.0 delivers the latest up to date strategies, methods and tactics for you build your ClickBank business rapidly.

Core Curriculum #1:
8-Week Affiliate Track
Instructor: Adam Horwitz
You're going to love being taught by Adam.

Adam made his first 6 figures specifically on ClickBank when he was just 20 years old using (of all things) other people's YouTube videos to promote products.

Adam has been written up on CNN Money, Business Insider, and Yahoo Finance for his unique ability to think out of the box and generate millions leveraging the power of the Internet as an affiliate on ClickBank.

The 8-week Affiliate Track is for those who want to make easy money promoting other people's products. It's great if you're...

Just starting out making
money on the Internet
Haven't generated tons
of money online yet
Don't want to create a
product or even a website
The 8-week Affiliate Track is the easier path. It's the quickest path to initial success.

Newly minted affiliates have taken Adam's training and started making real money that same day.

Core Curriculum #2:
12-Week Publisher Track
Instructor: JUSTIN ATLAN
Justin generated his first million dollars as a ClickBank publisher with his own products.

Publishing an information product that gets purchased 50 or 100 times a day is a rush. What's even more of a rush?

Doing it while you sleep.

That's right. Once you've created your product and promoted it using the cutting edge methods Justin will teach you, it's possible to have a perpetual money machine.

Because if you can sell one, you can sell hundreds. And get affiliates to do the heavy traffic generation work for you.

Do the math and you'll appreciate why being a ClickBank publisher is so lucrative.

ClickBank Publishing is for you if:

You want to run a full blown
information publishing business
You want to ratchet up your
success to the next level
You want to leverage ClickBank's
massive affiliate network
Justin has done it multiple times with students. And he'll teach you how, too!

also You can find my other helpful
https://rapu.world/search/?category_slug=&query=Business&language=&age=year&author=ParRus&search=1

General
Complete name : 2. Understanding the Numbers.MP4
Format : MPEG-4
Format profile : Base Media
Codec ID : isom (isom/iso2/avc1/mp41)
File size : 50.8 MiB
Duration : 5 min 15 s
Overall bit rate mode : Variable
Overall bit rate : 1 351 kb/s

AppleStoreCatalogID : 0
Xtra : WM/Director

Video
ID : 1
Format : AVC
Format/Info : Advanced Video Codec
Format profile : [email protected]
Format settings : 1 Ref Frames
Format settings, CABAC : No
Format settings, RefFrames : 1 frame
Format settings, GOP : M=1, N=12
Codec ID : avc1
Codec ID/Info : Advanced Video Coding
Duration : 5 min 15 s
Bit rate : 1 219 kb/s
Width : 960 pixels
Height : 540 pixels
Display aspect ratio : 16:9
Frame rate mode : Constant
Frame rate : 23.976 (23976/1000) FPS
Color space : YUV
Chroma subsampling : 4:2:0
Bit depth : 8 bits
Scan type : Progressive
Bits/(Pixel*Frame) : 0.098
Stream size : 45.8 MiB (90%)
Encoded date : UTC 2018-05-03 00:09:59
Tagged date : UTC 2018-05-03 00:09:59
Menus : 3

Audio
ID : 2
Format : AAC
Format/Info : Advanced Audio Codec
Format profile : LC
Codec ID : mp4a-40-2
Duration : 5 min 15 s
Bit rate mode : Variable
Bit rate : 128 kb/s
Channel(s) : 2 channels
Channel positions : Front: L R
Sampling rate : 44.1 kHz
Frame rate : 43.066 FPS (1024 SPF)
Compression mode : Lossy
Stream size : 4.81 MiB (9%)
Language : English
Encoded date : UTC 2018-05-03 00:09:59
Tagged date : UTC 2018-05-03 00:09:59

Menu
ID : 3
Codec ID : text
Duration : 5 min 15 s
Encoded date : UTC 2018-05-10 09:44:12
Tagged date : UTC 2018-05-10 09:44:12
Menu For : 1
00:00:00.000 : Chapter 1

Screenshots






DOWNLOAD
(Buy premium account for maximum speed and resuming ability)




https://rapidgator.net/file/e1564ba8c69efb0fe805fc21d0cd8dbc/3aqs8.Justin.Atlan.Adam.Horwitz..Clickbank.University.2.0.part01.rar
https://rapidgator.net/file/3912ab22df72ab0539a2f2d2ca30938e/3aqs8.Justin.Atlan.Adam.Horwitz..Clickbank.University.2.0.part02.rar
https://rapidgator.net/file/25e02be7283ab517f051a08e496ddc0e/3aqs8.Justin.Atlan.Adam.Horwitz..Clickbank.University.2.0.part03.rar
https://rapidgator.net/file/692dbeedd1d1d2e334b64841987cfaaf/3aqs8.Justin.Atlan.Adam.Horwitz..Clickbank.University.2.0.part04.rar
https://rapidgator.net/file/9beee02b116021cc6abe929104dac0db/3aqs8.Justin.Atlan.Adam.Horwitz..Clickbank.University.2.0.part05.rar
https://rapidgator.net/file/0108ad68a44a8ca86063b4afaa2c146c/3aqs8.Justin.Atlan.Adam.Horwitz..Clickbank.University.2.0.part06.rar
https://rapidgator.net/file/fd7c20e8d557931503c7cbbc047f466a/3aqs8.Justin.Atlan.Adam.Horwitz..Clickbank.University.2.0.part07.rar
https://rapidgator.net/file/a98ef441fa13a14939c191b083bc76d9/3aqs8.Justin.Atlan.Adam.Horwitz..Clickbank.University.2.0.part08.rar
https://rapidgator.net/file/7e0bb8af8f4b8f9471a630102008613b/3aqs8.Justin.Atlan.Adam.Horwitz..Clickbank.University.2.0.part09.rar
https://rapidgator.net/file/aebb29322cb77af03537dae03e7749e5/3aqs8.Justin.Atlan.Adam.Horwitz..Clickbank.University.2.0.part10.rar
https://rapidgator.net/file/fa2c16fa624ee0d13d84c9c8a575003f/3aqs8.Justin.Atlan.Adam.Horwitz..Clickbank.University.2.0.part11.rar
https://rapidgator.net/file/a0b2b386a39b5a234d5dc5c87c9f1bd8/3aqs8.Justin.Atlan.Adam.Horwitz..Clickbank.University.2.0.part12.rar