» » Peranbu (2019) Tamil - 1080p - WEB-DL - UNTOUCHED - AVC - DD5.1 - ESub-TMV

Peranbu (2019) Tamil - 1080p - WEB-DL - UNTOUCHED - AVC -

Peranbu (2019) Tamil - 1080p - WEB-DL - UNTOUCHED - AVC - DD5.1 - ESub-TMV




Format                                   : Matroska
Format version                           : Version 4
File size                                : 3.99 GiB
Duration                                 : 2 h 24 min
Overall bit rate                         : 3 946 kb/s
Encoded date                             : UTC 2019-03-09 18:45:11
Writing application                      : mkvmerge v25.0.0 ('Prog Noir') 32-bit
Writing library                          : libebml v1.3.6 + libmatroska v1.4.9

Video
ID                                       : 1
Format                                   : AVC
Format/Info                              : Advanced Video Codec
Format profile                           : [email protected]
Format settings                          : CABAC / 4 Ref Frames
Format settings, CABAC                   : Yes
Format settings, RefFrames               : 4 frames
Codec ID                                 : V_MPEG4/ISO/AVC
Duration                                 : 2 h 24 min
Bit rate                                 : 3 304 kb/s
Width                                    : 1 920 pixels
Height                                   : 816 pixels
Display aspect ratio                     : 2.35:1
Frame rate mode                          : Constant
Frame rate                               : 24.000 FPS
Color space                              : YUV
Chroma subsampling                       : 4:2:0
Bit depth                                : 8 bits
Scan type                                : Progressive
Bits/(Pixel*Frame)                       : 0.088
Stream size                              : 3.34 GiB (84%)
Default                                  : Yes
Forced                                   : No
Color range                              : Limited
Color primaries                          : BT.709
Transfer characteristics                 : BT.709
Matrix coefficients                      : BT.709

Audio
ID                                       : 2
Format                                   : E-AC-3
Format/Info                              : Enhanced AC-3
Commercial name                          : Dolby Digital Plus
Codec ID                                 : A_EAC3
Duration                                 : 2 h 24 min
Bit rate mode                            : Constant
Bit rate                                 : 640 kb/s
Channel(s)                               : 6 channels
Channel layout                           : L R C LFE Ls Rs
Sampling rate                            : 48.0 kHz
Frame rate                               : 31.250 FPS (1536 SPF)
Compression mode                         : Lossy
Stream size                              : 663 MiB (16%)
Title                                    : Tamil
Language                                 : Tamil
Service kind                             : Complete Main
Default                                  : No
Forced                                   : No

Text
ID                                       : 3
Format                                   : UTF-8
Codec ID                                 : S_TEXT/UTF8
Codec ID/Info                            : UTF-8 Plain Text
Duration                                 : 2 h 21 min
Bit rate                                 : 35 b/s
Count of elements                        : 1140
Stream size                              : 36.5 KiB (0%)
Title                                    : English [SDH]
Language                                 : English
Default                                  : No
Forced                                   : No





SINGLE DIRECT FAST LINKS

https://www.heroupload.com/761074de1d8d4f13/Peranbu.2019.Tamil.WEB-DL.1080p.UNTOUCHED.AVC.DD5.1.ESub-TMV.mkv


1GB LINKS


https://www.heroupload.com/7170b61f37bdbafe/Peranbu.2019.Tamil.WEB-DL.1080p.UNTOUCHED.AVC.DD5.1.ESub-TMV.part1.rar
https://www.heroupload.com/0868d66b438299fa/Peranbu.2019.Tamil.WEB-DL.1080p.UNTOUCHED.AVC.DD5.1.ESub-TMV.part2.rar
https://www.heroupload.com/06e762ebb5ffb938/Peranbu.2019.Tamil.WEB-DL.1080p.UNTOUCHED.AVC.DD5.1.ESub-TMV.part3.rar
https://www.heroupload.com/649b162c97a01f54/Peranbu.2019.Tamil.WEB-DL.1080p.UNTOUCHED.AVC.DD5.1.ESub-TMV.part4.rar


Buy Premium From My Links & Support Me