» » Peranbu (2019) Tamil - 720p - HDRip - x264 - DD5.1 - ESub-TMV

Peranbu (2019) Tamil - 720p - HDRip - x264 - DD5.1 - ESub-TMV

Peranbu (2019) Tamil - 720p - HDRip - x264 - DD5.1 - ESub-TMV




Format                                   : Matroska
Format version                           : Version 4
File size                                : 1.31 GiB
Duration                                 : 2 h 24 min
Overall bit rate                         : 1 293 kb/s
Encoded date                             : UTC 2019-03-10 13:42:07
Writing application                      : mkvmerge v29.0.0 ('Like It Or Not') 32-bit
Writing library                          : libebml v1.3.6 + libmatroska v1.4.9

Video
ID                                       : 1
Format                                   : AVC
Format/Info                              : Advanced Video Codec
Format profile                           : High@L3.1
Format settings                          : CABAC / 5 Ref Frames
Format settings, CABAC                   : Yes
Format settings, RefFrames               : 5 frames
Codec ID                                 : V_MPEG4/ISO/AVC
Duration                                 : 2 h 24 min
Bit rate                                 : 1 163 kb/s
Width                                    : 1 280 pixels
Height                                   : 544 pixels
Display aspect ratio                     : 2.35:1
Original display aspect ratio            : 2.35:1
Frame rate mode                          : Constant
Frame rate                               : 24.000 FPS
Color space                              : YUV
Chroma subsampling                       : 4:2:0
Bit depth                                : 8 bits
Scan type                                : Progressive
Bits/(Pixel*Frame)                       : 0.070
Stream size                              : 1.18 GiB (90%)
Language                                 : Tamil
Default                                  : Yes
Forced                                   : No
Color range                              : Limited
Color primaries                          : BT.709
Transfer characteristics                 : BT.709
Matrix coefficients                      : BT.709

Audio
ID                                       : 2
Format                                   : AC-3
Format/Info                              : Audio Coding 3
Commercial name                          : Dolby Digital
Codec ID                                 : A_AC3
Duration                                 : 2 h 24 min
Bit rate mode                            : Constant
Bit rate                                 : 128 kb/s
Channel(s)                               : 6 channels
Channel layout                           : L R C LFE Ls Rs
Sampling rate                            : 44.1 kHz
Frame rate                               : 28.711 FPS (1536 SPF)
Bit depth                                : 16 bits
Compression mode                         : Lossy
Stream size                              : 133 MiB (10%)
Language                                 : Tamil
Service kind                             : Complete Main
Default                                  : Yes
Forced                                   : No

Text
ID                                       : 3
Format                                   : UTF-8
Codec ID                                 : S_TEXT/UTF8
Codec ID/Info                            : UTF-8 Plain Text
Duration                                 : 2 h 21 min
Bit rate                                 : 35 b/s
Count of elements                        : 1140
Stream size                              : 36.5 KiB (0%)
Language                                 : English
Default                                  : No
Forced                                   : No



SINGLE DIRECT FAST LINKS


https://www.heroupload.com/dc790425ad3c1fdf/Peranbu.2019.Tamil.HDRip.720p.x264.DD5.1.ESub-TMV.mkv


Buy Premium From My Links & Support Me