» » Kayamkulam Kochunni (2018) Malayalam - 1080p - HDTV-Rip - x264 - DD5.1-TMV

Kayamkulam Kochunni (2018) Malayalam - 1080p - HDTV-Rip -

Kayamkulam Kochunni (2018) Malayalam - 1080p - HDTV-Rip - x264 - DD5.1-TMV





Format                                   : Matroska
Format version                           : Version 4
File size                                : 2.89 GiB
Duration                                 : 2 h 25 min
Overall bit rate                         : 2 840 kb/s
Encoded date                             : UTC 2019-03-10 19:42:57
Writing application                      : mkvmerge v29.0.0 ('Like It Or Not') 32-bit
Writing library                          : libebml v1.3.6 + libmatroska v1.4.9

Video
ID                                       : 1
Format                                   : AVC
Format/Info                              : Advanced Video Codec
Format profile                           : [email protected]
Format settings                          : CABAC / 4 Ref Frames
Format settings, CABAC                   : Yes
Format settings, RefFrames               : 4 frames
Codec ID                                 : V_MPEG4/ISO/AVC
Duration                                 : 2 h 25 min
Bit rate                                 : 2 678 kb/s
Width                                    : 1 920 pixels
Height                                   : 1 080 pixels
Display aspect ratio                     : 16:9
Frame rate mode                          : Constant
Frame rate                               : 25.000 FPS
Color space                              : YUV
Chroma subsampling                       : 4:2:0
Bit depth                                : 8 bits
Scan type                                : Progressive
Bits/(Pixel*Frame)                       : 0.052
Stream size                              : 2.76 GiB (95%)
Writing library                          : x264 core 157 r2935 545de2f
Encoding settings                        : cabac=1 / ref=1 / deblock=1:0:0 / analyse=0x3:0x113 / me=hex / subme=2 / psy=1 / psy_rd=1.00:0.00 / mixed_ref=0 / me_range=16 / chroma_me=1 / trellis=0 / 8x8dct=1 / cqm=0 / deadzone=21,11 / fast_pskip=1 / chroma_qp_offset=0 / threads=34 / lookahead_threads=8 / sliced_threads=0 / nr=0 / decimate=1 / interlaced=0 / bluray_compat=0 / constrained_intra=0 / bframes=3 / b_pyramid=2 / b_adapt=1 / b_bias=0 / direct=1 / weightb=1 / open_gop=0 / weightp=1 / keyint=250 / keyint_min=25 / scenecut=40 / intra_refresh=0 / rc_lookahead=10 / rc=abr / mbtree=1 / bitrate=2678 / ratetol=1.0 / qcomp=0.60 / qpmin=0 / qpmax=69 / qpstep=4 / ip_ratio=1.40 / aq=1:1.00
Language                                 : Malayalam
Default                                  : Yes
Forced                                   : No

Audio
ID                                       : 2
Format                                   : AC-3
Format/Info                              : Audio Coding 3
Commercial name                          : Dolby Digital
Codec ID                                 : A_AC3
Duration                                 : 2 h 25 min
Bit rate mode                            : Constant
Bit rate                                 : 128 kb/s
Channel(s)                               : 6 channels
Channel layout                           : L R C LFE Ls Rs
Sampling rate                            : 44.1 kHz
Frame rate                               : 28.711 FPS (1536 SPF)
Bit depth                                : 16 bits
Compression mode                         : Lossy
Stream size                              : 133 MiB (5%)
Language                                 : Malayalam
Service kind                             : Complete Main
Default                                  : Yes
Forced                                   : No





SINGLE DIRECT FAST LINKS

https://www.heroupload.com/7f29d29166455f2f/Kayamkulam.Kochunni.2018.Malayalam.HDTV.1080p.x264.5.1-TMV.mkv


700MB LINKS


https://www.heroupload.com/92d9e4af1a4af59e/Kayamkulam.Kochunni.2018.Malayalam.HDTV.1080p.x264.5.1-TMV.part1.rar
https://www.heroupload.com/6b62909cf6758dbd/Kayamkulam.Kochunni.2018.Malayalam.HDTV.1080p.x264.5.1-TMV.part2.rar
https://www.heroupload.com/2156a2419ffe1ffc/Kayamkulam.Kochunni.2018.Malayalam.HDTV.1080p.x264.5.1-TMV.part3.rar
https://www.heroupload.com/6100033c47f1d70d/Kayamkulam.Kochunni.2018.Malayalam.HDTV.1080p.x264.5.1-TMV.part4.rar
https://www.heroupload.com/90b125ef8af5ed73/Kayamkulam.Kochunni.2018.Malayalam.HDTV.1080p.x264.5.1-TMV.part5.rar


Buy Premium From My Links & Support Me