» » Yatra (2019) Telugu - 1080p - WEB-DL - UNTOUCHED - AVC - DD5.1 - ESub-TMV

Yatra (2019) Telugu - 1080p - WEB-DL - UNTOUCHED - AVC -

Yatra (2019) Telugu - 1080p - WEB-DL - UNTOUCHED - AVC - DD5.1 - ESub-TMV





Format                                   : Matroska
Format version                           : Version 4
File size                                : 5.61 GiB
Duration                                 : 2 h 5 min
Overall bit rate                         : 6 410 kb/s
Encoded date                             : UTC 2019-03-09 19:02:43
Writing application                      : mkvmerge v25.0.0 ('Prog Noir') 32-bit
Writing library                          : libebml v1.3.6 + libmatroska v1.4.9

Video
ID                                       : 1
Format                                   : AVC
Format/Info                              : Advanced Video Codec
Format profile                           : [email protected]
Format settings                          : CABAC / 4 Ref Frames
Format settings, CABAC                   : Yes
Format settings, RefFrames               : 4 frames
Codec ID                                 : V_MPEG4/ISO/AVC
Duration                                 : 2 h 5 min
Bit rate                                 : 5 768 kb/s
Width                                    : 1 920 pixels
Height                                   : 816 pixels
Display aspect ratio                     : 2.35:1
Frame rate mode                          : Constant
Frame rate                               : 24.000 FPS
Color space                              : YUV
Chroma subsampling                       : 4:2:0
Bit depth                                : 8 bits
Scan type                                : Progressive
Bits/(Pixel*Frame)                       : 0.153
Stream size                              : 5.04 GiB (90%)
Default                                  : Yes
Forced                                   : No
Color range                              : Limited
Color primaries                          : BT.709
Transfer characteristics                 : BT.709
Matrix coefficients                      : BT.709

Audio
ID                                       : 2
Format                                   : E-AC-3
Format/Info                              : Enhanced AC-3
Commercial name                          : Dolby Digital Plus
Codec ID                                 : A_EAC3
Duration                                 : 2 h 5 min
Bit rate mode                            : Constant
Bit rate                                 : 640 kb/s
Channel(s)                               : 6 channels
Channel layout                           : L R C LFE Ls Rs
Sampling rate                            : 48.0 kHz
Frame rate                               : 31.250 FPS (1536 SPF)
Compression mode                         : Lossy
Stream size                              : 573 MiB (10%)
Title                                    : Telugu
Language                                 : Telugu
Service kind                             : Complete Main
Default                                  : No
Forced                                   : No

Text
ID                                       : 3
Format                                   : UTF-8
Codec ID                                 : S_TEXT/UTF8
Codec ID/Info                            : UTF-8 Plain Text
Duration                                 : 2 h 2 min
Bit rate                                 : 70 b/s
Count of elements                        : 1676
Stream size                              : 63.2 KiB (0%)
Title                                    : English [SDH]
Language                                 : English
Default                                  : No
Forced                                   : No

Menu
00:00:00.000                             : en:Studio Logos
00:00:33.000                             : en:Opening Credits
00:02:54.000                             : en:Scene 3
00:13:25.000                             : en:Scene 4
00:24:30.000                             : en:Scene 5
00:35:38.000                             : en:Scene 6
00:46:48.000                             : en:Scene 7
00:58:13.000                             : en:Scene 8
01:06:49.000                             : en:Scene 9
01:19:38.000                             : en:Scene 10
01:43:08.000                             : en:Scene 11
01:55:21.000                             : en:Scene 12
02:03:07.000                             : en:End Credits






SINGLE DIRECT FAST LINKS

https://www.heroupload.com/688e46f9fee670eb/Yatra.2019.Telugu.WEB-DL.1080p.UNTOUCHED.AVC.DD5.1.ESub-TMV.mkv


1GB LINKS


https://www.heroupload.com/a8a383e859cbfa8e/Yatra.2019.Telugu.WEB-DL.1080p.UNTOUCHED.AVC.DD5.1.ESub-TMV.part1.rar
https://www.heroupload.com/c3f94fbcaef16a21/Yatra.2019.Telugu.WEB-DL.1080p.UNTOUCHED.AVC.DD5.1.ESub-TMV.part2.rar
https://www.heroupload.com/4401e6b1d03b3ad1/Yatra.2019.Telugu.WEB-DL.1080p.UNTOUCHED.AVC.DD5.1.ESub-TMV.part3.rar
https://www.heroupload.com/2e39df8ecb38fca7/Yatra.2019.Telugu.WEB-DL.1080p.UNTOUCHED.AVC.DD5.1.ESub-TMV.part4.rar
https://www.heroupload.com/78692062b038ed05/Yatra.2019.Telugu.WEB-DL.1080p.UNTOUCHED.AVC.DD5.1.ESub-TMV.part5.rar
https://www.heroupload.com/6e5bbbac8b798cf2/Yatra.2019.Telugu.WEB-DL.1080p.UNTOUCHED.AVC.DD5.1.ESub-TMV.part6.rar


Buy Premium From My Links & Support Me